【电影】【网盘分享】【刺客联盟 2.59GB】 | 【明日之战 4.17GB】
最后修改 23-05-31 16:24:29
状态 已公开
下载检测 有效
好评如潮 100%
7 好评
0 差评
1453 点击
2 评论
8 收藏
0 分享
下载1
访问码
解压码
点击下载会自动复制提取密码到剪切板

明日之战(THE TOMORROW WAR)视频源↓

https://www.btsj6.com/subject/ewnmy3n.html?ivk_sa=1024320u

刺客联盟(WANTED)视频源↓

http://www.hao6v.cc/gq/2009-02-23/6045.html

 

一、 刺客联盟

刺客联盟百度百科海报图

1. 百度百科链接↓

通缉令(美国2008年提莫·贝克曼贝托夫执导电影)_百度百科 (baidu.com)

2. 文件信息:

General
Complete name : 刺客联盟.Wanted.RERiP[1080p-H.264-AAC LC-BluRay].mp4
Format : MPEG-4
Format profile : Base Media
Codec ID : isom (isom)
File size : 2.60 GiB
Duration : 1 h 50 min
Overall bit rate mode : Variable
Overall bit rate : 3 383 kb/s
Frame rate : 23.976 FPS
Encoded date : 2020-05-10 16:35:35 UTC
Tagged date : 2020-05-10 16:35:35 UTC

Video
ID : 1
Format : AVC
Format/Info : Advanced Video Codec
Format profile : Progressive High@L4.1
Format settings : CABAC / 4 Ref Frames
Format settings, CABAC : Yes
Format settings, Reference fra : 4 frames
Codec ID : avc1
Codec ID/Info : Advanced Video Coding
Duration : 1 h 50 min
Bit rate : 3 000 kb/s
Maximum bit rate : 20.9 Mb/s
Width : 1 920 pixels
Height : 1 080 pixels
Display aspect ratio : 16:9
Frame rate mode : Constant
Frame rate : 23.976 (24000/1001) FPS
Color space : YUV
Chroma subsampling : 4:2:0
Bit depth : 8 bits
Scan type : Progressive
Bits/(Pixel*Frame) : 0.060
Stream size : 2.30 GiB (88%)
Writing library : x264 core 157 r2969 d4099dd
Encoding settings : cabac=1 / ref=2 / deblock=1:-2:-2 / analyse=0x3:0x113 / me=hex / subme=6 / psy=1 / psy_rd=1.00:0.25 / mixed_ref=1 / me_range=16 / chroma_me=1 / trellis=1 / 8x8dct=1 / cqm=0 / deadzone=6,6 / fast_pskip=1 / chroma_qp_offset=-4 / threads=34 / lookahead_threads=5 / sliced_threads=0 / nr=0 / decimate=0 / interlaced=0 / bluray_compat=0 / constrained_intra=0 / bframes=3 / b_pyramid=2 / b_adapt=1 / b_bias=0 / direct=1 / weightb=1 / open_gop=0 / weightp=1 / keyint=240 / keyint_min=23 / scenecut=40 / intra_refresh=0 / rc_lookahead=30 / rc=2pass / mbtree=1 / bitrate=3000 / ratetol=1.0 / qcomp=0.80 / qpmin=0 / qpmax=69 / qpstep=4 / cplxblur=20.0 / qblur=0.5 / vbv_maxrate=62500 / vbv_bufsize=78125 / nal_hrd=none / filler=0 / ip_ratio=1.10 / aq=1:0.50
Encoded date : 2020-05-09 19:20:32 UTC
Tagged date : 2020-05-10 16:35:51 UTC
Codec configuration box : avcC

Audio #1
ID : 2
Format : AAC LC
Format/Info : Advanced Audio Codec Low Complexity
Codec ID : mp4a-40-2
Duration : 1 h 50 min
Bit rate mode : Variable
Bit rate : 129 kb/s
Maximum bit rate : 138 kb/s
Channel(s) : 2 channels
Channel layout : L R
Sampling rate : 48.0 kHz
Frame rate : 46.875 FPS (1024 SPF)
Compression mode : Lossy
Stream size : 102 MiB (4%)
Language : English
Encoded date : 2020-05-10 16:35:42 UTC
Tagged date : 2020-05-10 16:35:51 UTC

Audio #2
ID : 3
Format : AAC LC
Format/Info : Advanced Audio Codec Low Complexity
Codec ID : mp4a-40-2
Duration : 1 h 49 min
Bit rate mode : Variable
Bit rate : 129 kb/s
Maximum bit rate : 139 kb/s
Channel(s) : 2 channels
Channel layout : L R
Sampling rate : 48.0 kHz
Frame rate : 46.875 FPS (1024 SPF)
Compression mode : Lossy
Stream size : 101 MiB (4%)
Language : Chinese
Encoded date : 2020-05-10 16:35:45 UTC
Tagged date : 2020-05-10 16:35:51 UTC

Audio #3
ID : 4
Format : AAC LC
Format/Info : Advanced Audio Codec Low Complexity
Codec ID : mp4a-40-2
Duration : 1 h 49 min
Bit rate mode : Variable
Bit rate : 129 kb/s
Maximum bit rate : 138 kb/s
Channel(s) : 2 channels
Channel layout : L R
Sampling rate : 48.0 kHz
Frame rate : 46.875 FPS (1024 SPF)
Compression mode : Lossy
Stream size : 101 MiB (4%)
Language : Chinese
Encoded date : 2020-05-10 16:35:48 UTC
Tagged date : 2020-05-10 16:35:51 UTC

 

二、明日之战

明日之战百度百科海报图

1. 百度百科链接↓

明日之战(美国2021克里斯·麦凯执导的电影)_百度百科 (baidu.com)

2. 文件信息:

General
Complete name : 明日之战.2021.HD1080P.AAC.H264.CHS-ENG.mp4
Format : MPEG-4
Format profile : Base Media
Codec ID : isom (isom/iso2/avc1/mp41)
File size : 4.17 GiB
Duration : 2 h 18 min
Overall bit rate : 4 327 kb/s
Frame rate : 23.976 FPS
Writing application : ShanaEncoder

Video
ID : 1
Format : AVC
Format/Info : Advanced Video Codec
Format profile : High@L4
Format settings : CABAC / 4 Ref Frames
Format settings, CABAC : Yes
Format settings, Reference fra : 4 frames
Codec ID : avc1
Codec ID/Info : Advanced Video Coding
Duration : 2 h 18 min
Bit rate : 4 000 kb/s
Width : 1 920 pixels
Height : 1 080 pixels
Display aspect ratio : 16:9
Frame rate mode : Constant
Frame rate : 23.976 (24000/1001) FPS
Color space : YUV
Chroma subsampling : 4:2:0
Bit depth : 8 bits
Scan type : Progressive
Bits/(Pixel*Frame) : 0.080
Stream size : 3.86 GiB (92%)
Writing library : x264 core 164 r3085 0bb85e8
Encoding settings : cabac=1 / ref=1 / deblock=1:0:0 / analyse=0x3:0x113 / me=hex / subme=2 / psy=0 / mixed_ref=0 / me_range=16 / chroma_me=1 / trellis=0 / 8x8dct=1 / cqm=0 / deadzone=21,11 / fast_pskip=1 / chroma_qp_offset=0 / threads=34 / lookahead_threads=8 / sliced_threads=0 / nr=0 / decimate=1 / interlaced=0 / bluray_compat=0 / constrained_intra=0 / bframes=3 / b_pyramid=2 / b_adapt=1 / b_bias=0 / direct=1 / weightb=1 / open_gop=0 / weightp=1 / keyint=240 / keyint_min=24 / scenecut=40 / intra_refresh=0 / rc_lookahead=10 / rc=2pass / mbtree=1 / bitrate=4000 / ratetol=1.0 / qcomp=0.60 / qpmin=0 / qpmax=69 / qpstep=4 / cplxblur=20.0 / qblur=0.5 / ip_ratio=1.40 / aq=2:1.00
Codec configuration box : avcC

Audio
ID : 2
Format : AAC LC
Format/Info : Advanced Audio Codec Low Complexity
Codec ID : mp4a-40-2
Duration : 2 h 18 min
Source duration : 2 h 18 min
Bit rate mode : Constant
Bit rate : 320 kb/s
Channel(s) : 6 channels
Channel layout : C L R Ls Rs LFE
Sampling rate : 48.0 kHz
Frame rate : 46.875 FPS (1024 SPF)
Compression mode : Lossy
Stream size : 316 MiB (7%)
Source stream size : 316 MiB (7%)
Default : Yes
Alternate group : 1

 

备注:

  1. 秒传链接脚本版本号为2.7.8,使用浏览器为Microsoft Edge
  2. 明日之战压缩包为分卷压缩,2个文件请勿乱改压缩包名字,使用软件为7-ZIP,压缩算法为PPMD 7zAES
  3. 刺客联盟压缩包,使用软件为7-ZIP,压缩算法为BZip2 7zAES
  4. 所有压缩文件密码均为12345678
好评如潮 100%
文件解压教程

首先准备好解压工具, 电脑端安装 WINRAR, 手机端安装 Zarchiver 或者 ES文件管理器

然后有2种类型的压缩包:

1. 单一压缩文件的(可以单独下载和解压)

- 如果后缀名正常: 直接打开文件 > 输入密码 >解压文件 > 解压成功, 有的情况会有双层压缩, 再继续解压即可

- 如果需要修改后缀名: 不需要管文件原本后缀是什么,只要是压缩文件,后缀直接改成 .rar, 然后用解压工具打开,工具会自动识别正确的类型, 然后解压即可, (有的系统默认不能更改后缀名,这种情况, 要先百度下如何显示文件后缀名).

2. 多个压缩分卷文件的 (需要全部下载完毕后 才能正确解压)

- 如果后缀名正常: 只需要解压第一个分卷即可, 工具在解压过程中会自动调用其他分卷, 不需要每个分卷都解压一遍 (所以需要提前全部下载好), 不同压缩格式的第一个分卷命名是有区别的 (RAR格式的第一个分卷是叫 xxx.part1.rar , 7z格式的第一个压缩分卷是叫 xxx.001 , ZIP格式的第一个压缩分卷 就是默认的 XXX.zip ) .

- 如果是需要改后缀的情况 (比较少见): 需要把文件按顺序重新命名好才能正常解压, RAR的分卷命名格式是 xxx.part1.rar, xxx.part2.rar, xxx.part3.rar, 7z的命名格式是 xxx.001, xxx.002, xxx.003, ZIP的排序格式 xxx.zip, xxx.zip.001, xxx.zip.002

预览
2 条评论
用户头像

天天在家手冲会不会阳痿? 如何锻炼自己的牛子持久不射? :?:

我也想像哥布林一样一天一个女骑士。:?:

那就快去“A酱的绅士玩具屋”吧, 初音社为大家申请到了限时粉丝专属价, 只有和客服A酱说是初音社来的就可以享受到优惠哦!~ :|

戳这里即可拥有>> 一个榨汁飞(lao)机(po)杯,快来我和签订契约成为绅(hen)士(tai)吧!

2024-03-09 12:12:12
淘宝店
初音社